Добро пожаловать

Рады приветствовать Вас на форуме "Музыка без потери качества". У нас Вы сможете найти качественную музыку в форматах : APE.FLAC,WV,WAV (Lossless) и скачать ее бесплатно , одним файлом. loclec@yandex.ru


Ozon.ru

Музыка без потери качества

Информация о пользователе

Привет, Гость! Войдите или зарегистрируйтесь.


Вы здесь » Музыка без потери качества » Архив » Pелизы со статусом "Недооформлено"


Pелизы со статусом "Недооформлено"

Сообщений 11 страница 14 из 14

11

Lionel Richie - 2006 - Sounds Of The Season

http://s006.radikal.ru/i213/1009/31/acfa7d6f1667.jpg

Исполнитель: Lionel Richie
Альбом: "Sounds Of The Season"
Год: 2006
Кодек: FLAC (Accurate Rip)
Формат: Image+Cue+Log+Covers
Размер: 220 MB

Covers|Скрыть Covers

http://s002.radikal.ru/i199/1009/b2/f0354c216722t.jpg
http://s004.radikal.ru/i205/1009/9e/84a64d4c9430t.jpg
http://s004.radikal.ru/i207/1009/71/de7700f0d203t.jpg
http://s56.radikal.ru/i154/1009/22/47b181cb3f74t.jpg

Tracklist|Скрыть Tracklist

01 Little Drummer Boy
02 Silent Night
03 The First Noel
04 Joy To The World
05 The Christmas Song
06 O Come All Ye Faithful
07 Have Yourself A Merry Little Christmas
08 Winter Wonderland

EAC Log|Скрыть EAC Log

Exact Audio Copy V0.99 prebeta 5 from 4. May 2009

EAC extraction logfile from 30. August 2010, 9:17

Lionel Richie / Sounds Of Season

Used drive  : TEAC    CD-W54E   Adapter: 1  ID: 0

Read mode               : Secure
Utilize accurate stream : Yes
Defeat audio cache      : Yes
Make use of C2 pointers : No

Read offset correction                      : 685
Overread into Lead-In and Lead-Out          : No
Fill up missing offset samples with silence : Yes
Delete leading and trailing silent blocks   : No
Null samples used in CRC calculations       : Yes
Used interface                              : Native Win32 interface for Win NT & 2000

Used output format : Internal WAV Routines
Sample format      : 44.100 Hz; 16 Bit; Stereo

TOC of the extracted CD

     Track |   Start  |  Length  | Start sector | End sector
    ---------------------------------------------------------
        1  |  0:00.00 |  3:55.47 |         0    |    17671   
        2  |  3:55.47 |  4:33.14 |     17672    |    38160   
        3  |  8:28.61 |  3:09.49 |     38161    |    52384   
        4  | 11:38.35 |  2:40.55 |     52385    |    64439   
        5  | 14:19.15 |  2:59.02 |     64440    |    77866   
        6  | 17:18.17 |  3:21.65 |     77867    |    93006   
        7  | 20:40.07 |  5:21.13 |     93007    |   117094   
        8  | 26:01.20 |  2:24.43 |    117095    |   127937   

Range status and errors

Selected range

     Filename G:\Lionel Richie - Sounds Of Season.wav

     Peak level 98.8 %
     Range quality 99.9 %
     Copy CRC FD0AA74F
     Copy OK

No errors occurred

AccurateRip summary

Track  1  accurately ripped (confidence 10)  [A2C92F52]
Track  2  accurately ripped (confidence 10)  [B74404C2]
Track  3  accurately ripped (confidence 10)  [4A8450FB]
Track  4  accurately ripped (confidence 10)  [0FB62A3E]
Track  5  accurately ripped (confidence 10)  [3F24C195]
Track  6  accurately ripped (confidence 10)  [25CDB7E0]
Track  7  accurately ripped (confidence 10)  [C0503733]
Track  8  accurately ripped (confidence 10)  [4E62793A]

All tracks accurately ripped

End of status report

Links|Скрыть Links
Скрытый текст:

Для просмотра скрытого текста - войдите или зарегистрируйтесь.

+1

12

Lionel Richie - 1996 - Louder Than Words

http://i080.radikal.ru/1009/96/40e804621618.jpg

Исполнитель: Lionel Richie
Альбом: "Louder Than Words"
Год: 1996
Кодек: FLAC (Accurate Rip)
Формат: Image+Cue+Log+Covers
Размер: 460 MB

Covers|Скрыть Covers

http://s52.radikal.ru/i135/1009/28/b436125fd70ct.jpg
http://s61.radikal.ru/i172/1009/e9/fd48147e839et.jpg
http://s004.radikal.ru/i208/1009/89/7eb6933ca50dt.jpg

Tracklist|Скрыть Tracklist

01. Piece Of Love
02. Still In Love
03. I Wanna Take You Down
04. Can't Get Over You
05. Change
06. Nothing Else Matters
07. Ordinary Girl
08. Say I Do
09. Paradise
10. Don't Wanna Lose You
11. Now You're Gone
12. Lovers At First Sight
13. Climbing

Links|Скрыть Links
Скрытый текст:

Для просмотра скрытого текста - войдите или зарегистрируйтесь.

+1

13

Lionel Richie - 1998 - Time

http://s54.radikal.ru/i146/1009/b3/688b0eca4a17.jpg

Исполнитель: Lionel Richie
Альбом: "Time"
Год: 1998
Кодек: FLAC (Accurate Rip)
Формат: Tracks+Cue+Log+Covers
Размер: 408 MB

Tracklist|Скрыть Tracklist

1. Zoomin'
2. I Hear Your Voice
3. Touch
4. Forever
5. Everytime
6. Time
7. To The Rhythm
8. Stay
9. The Way I Feel
10. Closest Thing To Heaven
11. Someday
12. Lady

EAC Log|Скрыть EAC Log

Exact Audio Copy V0.99 prebeta 5 from 4. May 2009

EAC extraction logfile from 31. August 2001, 22:29

Lionel Richie / Time

Used drive  : TEAC    CD-W54E   Adapter: 1  ID: 0

Read mode               : Secure
Utilize accurate stream : Yes
Defeat audio cache      : Yes
Make use of C2 pointers : No

Read offset correction                      : 685
Overread into Lead-In and Lead-Out          : No
Fill up missing offset samples with silence : Yes
Delete leading and trailing silent blocks   : No
Null samples used in CRC calculations       : Yes
Used interface                              : Native Win32 interface for Win NT & 2000
Gap handling                                : Appended to previous track

Used output format              : User Defined Encoder
Selected bitrate                : 1024 kBit/s
Quality                         : High
Add ID3 tag                     : No
Command line compressor         : E:\Program Files\FLAC\flac.exe
Additional command line options : -V -8 -T "artist=%a" -T "title=%t" -T "album=%g" -T "date=%y" -T "tracknumber=%n" -T "genre=%m" %s 

TOC of the extracted CD

     Track |   Start  |  Length  | Start sector | End sector
    ---------------------------------------------------------
        1  |  0:00.00 |  4:23.40 |         0    |    19764   
        2  |  4:23.40 |  4:00.40 |     19765    |    37804   
        3  |  8:24.05 |  5:08.05 |     37805    |    60909   
        4  | 13:32.10 |  6:13.00 |     60910    |    88884   
        5  | 19:45.10 |  4:15.70 |     88885    |   108079   
        6  | 24:01.05 |  6:11.62 |    108080    |   135966   
        7  | 30:12.67 |  5:14.28 |    135967    |   159544   
        8  | 35:27.20 |  4:09.72 |    159545    |   178291   
        9  | 39:37.17 |  3:07.25 |    178292    |   192341   
       10  | 42:44.42 |  4:00.43 |    192342    |   210384   
       11  | 46:45.10 |  4:23.37 |    210385    |   230146   
       12  | 51:08.47 |  4:26.40 |    230147    |   250136   

Track  1

     Filename G:\_torrents\what.cd\Lionel Richie - 1998 - Time\Lionel Richie - 1998 - Time\01 Zoomin'.wav

     Pre-gap length  0:00:02.00

     Peak level 98.8 %
     Track quality 100.0 %
     Test CRC 8127DA87
     Copy CRC 8127DA87
     Accurately ripped (confidence 34)  [1BEDFBB8]
     Copy OK

Track  2

     Filename G:\_torrents\what.cd\Lionel Richie - 1998 - Time\Lionel Richie - 1998 - Time\02 I Hear Your Voice.wav

     Pre-gap length  0:00:00.13

     Peak level 98.8 %
     Track quality 100.0 %
     Test CRC E3ACF92E
     Copy CRC E3ACF92E
     Accurately ripped (confidence 34)  [2F034DA2]
     Copy OK

Track  3

     Filename G:\_torrents\what.cd\Lionel Richie - 1998 - Time\Lionel Richie - 1998 - Time\03 Touch.wav

     Pre-gap length  0:00:00.44

     Peak level 98.8 %
     Track quality 100.0 %
     Test CRC C219C0AC
     Copy CRC C219C0AC
     Accurately ripped (confidence 34)  [3D907E8E]
     Copy OK

Track  4

     Filename G:\_torrents\what.cd\Lionel Richie - 1998 - Time\Lionel Richie - 1998 - Time\04 Forever.wav

     Pre-gap length  0:00:00.17

     Peak level 98.8 %
     Track quality 100.0 %
     Test CRC 63089AC9
     Copy CRC 63089AC9
     Accurately ripped (confidence 34)  [E70A1C93]
     Copy OK

Track  5

     Filename G:\_torrents\what.cd\Lionel Richie - 1998 - Time\Lionel Richie - 1998 - Time\05 Everytime.wav

     Peak level 98.8 %
     Track quality 100.0 %
     Test CRC 9539FA4E
     Copy CRC 9539FA4E
     Accurately ripped (confidence 34)  [6F72AD05]
     Copy OK

Track  6

     Filename G:\_torrents\what.cd\Lionel Richie - 1998 - Time\Lionel Richie - 1998 - Time\06 Time.wav

     Pre-gap length  0:00:00.24

     Peak level 98.8 %
     Track quality 100.0 %
     Test CRC 6201650F
     Copy CRC 6201650F
     Accurately ripped (confidence 34)  [E913C2C1]
     Copy OK

Track  7

     Filename G:\_torrents\what.cd\Lionel Richie - 1998 - Time\Lionel Richie - 1998 - Time\07 To The Rhythm.wav

     Pre-gap length  0:00:00.82

     Peak level 98.8 %
     Track quality 100.0 %
     Test CRC 7DC3D9A1
     Copy CRC 7DC3D9A1
     Accurately ripped (confidence 34)  [F494F60C]
     Copy OK

Track  8

     Filename G:\_torrents\what.cd\Lionel Richie - 1998 - Time\Lionel Richie - 1998 - Time\08 Stay.wav

     Pre-gap length  0:00:00.30

     Peak level 97.7 %
     Track quality 100.0 %
     Test CRC FC3CCB55
     Copy CRC FC3CCB55
     Accurately ripped (confidence 34)  [01FD4891]
     Copy OK

Track  9

     Filename G:\_torrents\what.cd\Lionel Richie - 1998 - Time\Lionel Richie - 1998 - Time\09 The Way I Feel.wav

     Pre-gap length  0:00:00.73

     Peak level 98.8 %
     Track quality 100.0 %
     Test CRC 726FE885
     Copy CRC 726FE885
     Accurately ripped (confidence 34)  [B0A608D2]
     Copy OK

Track 10

     Filename G:\_torrents\what.cd\Lionel Richie - 1998 - Time\Lionel Richie - 1998 - Time\10 Closest Thing To Heaven.wav

     Pre-gap length  0:00:00.49

     Peak level 98.8 %
     Track quality 100.0 %
     Test CRC C4629158
     Copy CRC C4629158
     Accurately ripped (confidence 34)  [25785541]
     Copy OK

Track 11

     Filename G:\_torrents\what.cd\Lionel Richie - 1998 - Time\Lionel Richie - 1998 - Time\11 Someday.wav

     Pre-gap length  0:00:00.60

     Peak level 97.7 %
     Track quality 100.0 %
     Test CRC D4C79C0F
     Copy CRC D4C79C0F
     Accurately ripped (confidence 34)  [EBF3129D]
     Copy OK

Track 12

     Filename G:\_torrents\what.cd\Lionel Richie - 1998 - Time\Lionel Richie - 1998 - Time\12 Lady.wav

     Pre-gap length  0:00:01.06

     Peak level 98.8 %
     Track quality 100.0 %
     Test CRC 0F2B0A50
     Copy CRC 0F2B0A50
     Accurately ripped (confidence 33)  [0D51507D]
     Copy OK

All tracks accurately ripped

No errors occurred

End of status report

Links|Скрыть Links
Скрытый текст:

Для просмотра скрытого текста - войдите или зарегистрируйтесь.

+2

14

Lionel Richie - 2002 - Encore

http://s010.radikal.ru/i311/1104/a7/237bc2c56f9b.jpg

Исполнитель: Lionel Richie
Альбом: "Encore"
Год: 2002
Кодек: FLAC (Accurate Rip)
Формат: Tracks+Cue+Covers
Размер: 450 MB

Tracklist|Скрыть Tracklist

01 - Hello
02 - Running With The Night
03 - Penny Lover
04 - Easy
05 - Dancing On The Ceiling
06 - Stuck On You
07 - Brick House
08 - Three Times A Lady
09 - All Night Long
10 - Say You, Say Me
11 - Angel
12 - Still
13 - Goodbye
14 - To Love A Woman - featuring Enrique Iglesias

Accurate Rip Log|Скрыть AR Log

[CUETools log; Date: 20.12.2010 2:59:57; Version: 2.0.9]
[CTDB TOCID: 1x8_K7Miu9a7L_BPVW_3shYn6G4-] found.
        [ CTDBID ] Status
        [6f4b4fff] (26/26) Accurately ripped
[AccurateRip ID: 001c3846-01324f4f-c00d2f0e] found.
Track   [ CRC    ] Status
01     [48dcfcba] (35/35) Accurately ripped
02     [b23646ed] (36/36) Accurately ripped
03     [7d7edd92] (36/36) Accurately ripped
04     [b34503f3] (34/34) Accurately ripped
05     [4250fc65] (36/36) Accurately ripped
06     [026e76bf] (36/36) Accurately ripped
07     [cc26ef94] (35/35) Accurately ripped
08     [489e01aa] (35/35) Accurately ripped
09     [73138ca8] (35/35) Accurately ripped
10     [287a027c] (35/35) Accurately ripped
11     [d1aca61b] (35/35) Accurately ripped
12     [26da3416] (35/35) Accurately ripped
13     [041a9efa] (34/34) Accurately ripped
14     [685a2f19] (32/32) Accurately ripped

Track Peak [ CRC32  ] [W/O NULL]
--  100,0 [DDB4F0A6] [7928AF59]           
01  100,0 [3AD0DB3B] [FAE6E08D]           
02   98,8 [05213388] [A19F90B4]           
03   98,8 [08BB3562] [AE4215F5]           
04   98,8 [C47A80D7] [C9E2A49C]           
05   98,8 [098A9B3D] [D212131F]           
06   98,8 [F5487627] [346BDBE2]           
07   98,8 [3D1E2952] [38AAE01E]           
08   98,8 [0BF3957E] [5167B45F]           
09   98,8 [43ABF6A6] [C53DC61D]           
10   98,8 [0FE90E09] [CF5B8029]           
11   98,8 [3366A9D0] [E5778C3D]           
12   98,8 [38C70BA4] [1CAAE9F8]           
13   98,8 [5CD91FBA] [AACC4FD6]           
14   98,8 [9D2C6B0B] [813115AD]         

Links|Скрыть Links
Скрытый текст:

Для просмотра скрытого текста - войдите или зарегистрируйтесь.

+3


Вы здесь » Музыка без потери качества » Архив » Pелизы со статусом "Недооформлено"